Gyermekeknek való rajzfilmek, filmek, sorozatok

papadi

Állandó Tag
Állandó Tag

Futrinka utca
Magyar bábfilmsorozat, 1979
Írta: Bálint Ágnes
Báb- és díszlettervező: Lévai Sándor
Zene: Bergendy István
Rendezte: Szabó Attila
Főszereplők (hangja): Szöllősi Irén (Cicamica), Simándi József (Morzsa), Havas Gertrud (Buksi), B. Kiss István (Sompolyogi), Meixler Ildikó (Rókica), Csepeli Péter, Harkányi Endre (Bagó), Balogh Klári (Egerentyűné)

Epizódok:
1. Az edzett eb (11:40)
2. Az őrző-védő kalap (13:23)
3. Tájékozódó futás (13:54)
4. De jó vicc! (13:21)
5. Nyuszibaba (14:48)
6. Rókavadászok (11:25)
7. Ezüstpenész /a borítón: Ezüstpénz/ (14:12)
8. Morzsa kutya díványa (10:07)

Extrák:
1. Futrinka-land - Ismerd meg a Futrinka utca lakóit
2. Játék - Csoportosítsd a szereplőket
3. Ajánló

2006 - dvd/iso - 7,81 GB - 720x756 - 32/48 - 1:42:52
[HIDE-THANKS]
Kód:
https://data.hu/get/11280663/D2454i.part01.rar
https://data.hu/get/11280669/D2454i.part02.rar
https://data.hu/get/11280661/D2454i.part03.rar
https://data.hu/get/11280662/D2454i.part04.rar
https://data.hu/get/11280670/D2454i.part05.rar
https://data.hu/get/11280666/D2454i.part06.rar
https://data.hu/get/11280668/D2454i.part07.rar
https://data.hu/get/11280671/D2454i.part08.rar
https://data.hu/get/11280667/D2454i.part09.rar
https://data.hu/get/11280672/D2454i.part10.rar
https://data.hu/get/11280665/D2454i.part11.rar
https://data.hu/get/11280673/D2454i.part12.rar
[/HIDE-THANKS]
 

Luna5

Állandó Tag
Állandó Tag
szederkert_dvd_2014_dvd_mirax_kiado.jpg


Szederkert
Eredeti cím: Brambly Hedge
Műfaj: Animáció/Rajzfilm
Színészek: Rajzfilmfigurák
Készítés éve: 1996
Játékidő: 200 perc
Korhatár besorolás: Korhatár nélkül megtekinthető.


Valahol a vadonban van egy sövény ami keresztül fut a réten majd tova rohan a csobogó patakocska irányába. A sövényt bodza, galagonya, földi szeder, vadrózsa, egy öreg tölgy, vadalma, páfrány és nyomokban lonc alkotja. A közepén találhatunk egy nagy borostyán borította fatörzset. Messziről úgy néz ki, mint bármely más fatörzs, de menjünk közelebb picit. Lám-lám, egérkék csoportjait pillanthatjuk meg a magas fűben és lent a patak mellett, míg mások sietve intézik napi teendőiket a liszt finomítóban és a tejüzemben. Varázslatos pici világba csöppenünk, ahol barátság és a szeretet örök törvényei uralkodnak.

Szederkert 1.
Az 1. epizódok: Téli mese, Tavaszi mese, Nyári mese.

Szederkert 2.
A 2. epizódok: Őszi mese, A titkos lépcső, Nagy hegyek.

Szederkert 3.
A 3. epizódok: Tengerparti kaland, Pipacs gyermekei.

[HIDE-THANKS]
https://data.hu/get/11333785/Brambly_hedge_1-1.mp4
https://data.hu/get/11333786/Brambly_hedge_1-2.mp4
https://data.hu/get/11333789/Brambly_hedge_1-3.mp4
https://data.hu/get/11333790/Brambly_hedge_1-4.mp4
https://data.hu/get/11333792/Brambly_hedge_2-1.mp4
https://data.hu/get/11333799/Brambly_hedge_2-2.mp4
https://data.hu/get/11333800/Brambly_hedge_2-3.mp4
https://data.hu/get/11333801/Brambly_hedge_2-4.mp4
https://data.hu/get/11333802/Brambly_hedge_3-1.mp4
https://data.hu/get/11338560/Brambly_hedge_3-2.mp4
https://data.hu/get/11338563/Brambly_hedge_3-3.mp4[/HIDE-THANKS]
 

papadi

Állandó Tag
Állandó Tag
Kukori és Kotkoda
Magyar rajzfilmsorozat (1970-1972)
Írta: Bálint Ágnes
Rendezte: Mata János
A figurák hangja: Kukori - Márkus László, Kotkoda - Psota Irén (1970), Hacser Józsa (1972), Kopasznyakú - Szuhay Balázs, Hápogi - Horváth Gyula, Szöcske - Kóti Kati



Kukori és Kotkoda

Epizódok a dvd-menű szerint (a borítón a sorrend és helyenként a cím is eltér):
01 - Műmenyét (2x01) 7:40
02 - Érik a szőlő (2x02) 7:58
03 - Fogyókúra (2x03) 8:40
04 - Kolibri-díj (2x04) 9:19
05 - Köd előttem - köd utánam (2x05) 8:23
06 - Nyikorgó daráló (2x06) 7:41
07 - Acélcsőr (2x07) 7:42
08 - Házvezetőnő (2x08) 7:59

Extra (csak a dvd-n):
Ajánlók
1 - Dörmögőék (1:51)
2 - Frakk (1:55)
3 - Mazsola és Tádé (4:09)

2004/2013 - dvd/iso - 3,61 GB - 720x576 - 32/48 - 1:05:15 + 7:55
[HIDE-THANKS]
Kód:
https://data.hu/get/11371442/D1627i.part1.rar
https://data.hu/get/11371440/D1627i.part2.rar
https://data.hu/get/11371439/D1627i.part3.rar
https://data.hu/get/11371436/D1627i.part4.rar
[/HIDE-THANKS]

2004/2013 - dvdrip - avi - 648 MB - 720x544 px - 192 kbps - 1:05:15
[HIDE-THANKS]
Kód:
https://data.hu/get/11371441/D1627av.part1.rar
https://data.hu/get/11371438/D1627av.part2.rar
https://data.hu/get/11371437/D1627av.part3.rar
https://data.hu/get/11371435/D1627av.part4.rar
[/HIDE-THANKS]




Kukori és Kotkoda 2. - Kakasviadal

Epizódlista:
01 - Saját kacsaúsztató (1x10) 7:22
02 - Kacsakórus (1x11) 7:28
03 - A születésnapi szemétdomb (1x12) 7:34
04 - Hajrá darazsak (1x13) 9:42
05 - Tojásfesztivál (1x02) 8:05
06 - Volt-nincs (1x04) 8:50
07 - A hattyú (1x05) 7:32
08 - Rézsarkantyú (1x06) 7:59
09 - Végtelen giliszta (1x07) 6:53
10 - Aranytojás (1x08) 7:54
11 - Kakasviadal (1x09) 5:58
12 - Dimbes-dombos (2x10) 6:47
13 - Horgászok (2x12) 8:01
14 - A kánya (2x13) 7:31
15 - Valami repül (2x09) 8:10

Extra (csak a dvd-n):
Ajánlók
1 - Dörmögőék kalandjai (1:39)
2 - Dörmögőék újabb kalandjai (0:30)
3 - Vackor az első bében (0:43)
4 - Frakk a macskák réme (1:16)
5 - Mazsola és Tádé - Volt egyszer egy kismalac (1:26)
6 - Futrinka utca (1:29)
7 - Kukori és Kotokoda 1. (1:42)
8 - Magyar népmesék sorozat (3:55)

2006 - dvd/iso - 7,22 GB - 720x576 - 32/48 - 1:55:51+12:40
[HIDE-THANKS]
Kód:
https://data.hu/get/11371779/D1628i.part1.rar
https://data.hu/get/11371773/D1628i.part2.rar
https://data.hu/get/11371780/D1628i.part3.rar
https://data.hu/get/11371776/D1628i.part4.rar
https://data.hu/get/11371778/D1628i.part5.rar
https://data.hu/get/11371781/D1628i.part6.rar
https://data.hu/get/11371774/D1628i.part7.rar
https://data.hu/get/11371775/D1628i.part8.rar
[/HIDE-THANKS]

2006 - dvdrip - avi - 1,11 GB - 720x544 px - 192 kbps - 1:55:51
[HIDE-THANKS]
Kód:
https://data.hu/get/11371852/D1628av.part1.rar
https://data.hu/get/11371849/D1628av.part2.rar
https://data.hu/get/11371850/D1628av.part3.rar
https://data.hu/get/11371848/D1628av.part4.rar
https://data.hu/get/11371851/D1628av.part5.rar
https://data.hu/get/11371847/D1628av.part6.rar
[/HIDE-THANKS]

Megjegyzés: Az első sorozatból az 1. (A baromfiudvar réme) és a 3. (Városi lakás) valamint a 2. sorozatból a 11. (Rovargyűjtés) epizódokat kifelejtették - talán, ha nem keverik össze a sorrendet :)

A teljes első évad a Computer Panoráma című újság 2003/6-9. számának dvd-mellékletéről
(2003 - mpeg - 352x288 px - 112 kbps)
01 - A baromfiudvar réme (111 MB - 7:02)
02 - Tojásfesztivál (128 MB - 8:06)
03 - Városi lakás (117 MB - 7:24)
04 - Volt-nincs (140 MB - 8:50)
05 - A hattyú (119 MB - 7:32)
06 - Rézsarkantyú (127 MB - 8:00)
07 - Végtelen giliszta (109 MB - 6:52)
08 - Aranytojás (125 MB - 7:54)
09 - Kakasviadal (94 MB - 5:38)
10 - Saját kacsaúsztató (116 MB - 7:21)
11 - Kacsakórus (118 MB - 7:27)
12 - A születésnapi szemétdomb (119 MB - 7:33)
13 - Hajrá, darazsak! (153 MB - 9:40)

[HIDE-THANKS]
Kód:
http://data.hu/get/7494370/01_-_A_baromfiudvar_rme.rar
http://data.hu/get/7494371/02_-_Tojsfesztivl.rar
http://data.hu/get/7494372/03_-_Vrosi_laks.rar
http://data.hu/get/7494373/04_-_Volt-nincs.rar
http://data.hu/get/7494374/05_-_A_hatty.rar
http://data.hu/get/7494375/06_-_Rzsarkanty.rar
http://data.hu/get/7494376/07_-_Vgtelen_giliszta.rar
http://data.hu/get/7494377/08_-_Aranytojs.rar
http://data.hu/get/7494378/09_-_Kakasviadal.rar
http://data.hu/get/7494379/10_-_Sajt_kacsasztat.rar
http://data.hu/get/7494380/11_-_Kacsakrus.rar
http://data.hu/get/7494381/12_-_A_szletsnapi_szemtdomb.rar
http://data.hu/get/7494382/13_-_Hajr_darazsak.rar
[/HIDE-THANKS]
 

papadi

Állandó Tag
Állandó Tag


Mekk Elek, az ezermester
Magyar bábfilmsorozat (1974)
Írta: Romhányi József
Zene: Ránki György
Rendezte: Imre István
Hangok: Mekk Elek - Balázs Péter, Flórián, a papagáj - Szuhay Balázs

01. A csodálatos asztalos 7:06
02. Épületes eset 7:03
03. Nyúlcipő 7:10
04. Kinek lesz melege? 6:51
05. A szamárkenyérfa 7:07
06. Kutyalakzi 7:08
07. Biztonsági berendezés 6:51
08. A kútásó 6:55
09. Macskazene 7:03
10. Paci Manci frizurája 7:07
11. A szélmolnár 6:27
12. Az éléskamrások 7:01
13. Helén divatot csinál 6:58

1974/2010 - dvd/iso - 5,43 GB - 720x576 - 32/48 - 1:30:54
[HIDE-THANKS]
Kód:
https://data.hu/get/11374317/D1611i.part1.rar
https://data.hu/get/11374321/D1611i.part2.rar
https://data.hu/get/11374318/D1611i.part3.rar
https://data.hu/get/11374328/D1611i.part4.rar
https://data.hu/get/11374320/D1611i.part5.rar
https://data.hu/get/11374323/D1611i.part6.rar
[/HIDE-THANKS]

1974/2010 - dvdrip - avi - 972 MB - 720x544 px - 192 kbps - 1:30:54
[HIDE-THANKS]
Kód:
https://data.hu/get/11374327/D1611av.part1.rar
https://data.hu/get/11374326/D1611av.part2.rar
https://data.hu/get/11374324/D1611av.part3.rar
https://data.hu/get/11374325/D1611av.part4.rar
https://data.hu/get/11374316/D1611av.part5.rar
https://data.hu/get/11374322/D1611av.part6.rar
[/HIDE-THANKS]
 

papadi

Állandó Tag
Állandó Tag
Frakk, a macskák réme
Magyar animációs sorozat (1971-1984)
Írta: Bálint Ágnes
Rendezte: Macskássy Gyula, Cseh András és Nagy Pál
Zene: Pethő Zsolt
Hangok: Szabó Gyula (Frakk), Schubert Éva (Lukrécia), Váradi Hédi (Szerénke), Rajz János majd Suka Sándor (Károly bácsi), Pártos Erzsi (Irma néni)



Frakk, fő a kényelem
01 - Éji zene - 5:45
02 - A betegápoló - 6:25
03 - Egerészni jó - 6:30
04 - Fő a kényelem! - 6:21
05 - Árulás - 6:19
06 - Élőkép - 6:12
07 - Diadal - 5:51
08 - Éjszaka fényei - 6:13
09 - Szerénke művelődik - 5:46
10 - Egy kis kényeztetés - 6:33
11 - Elégtétel - 6:16
12 - Pancsi-pancsi - 6:12
13 - Bizsu - 7:00
A borítón az 1. és a 7. rész felcserélve

Extra (csak a dvd-n):
Már megjelent DVD-n! (ajánlók)
1 - Mazsola és Tádé - Volt egyszer egy kismalac - 1:04
2 - Kukori és Kotokoda - 1:53
3 - Futrinka utca - 1:50
4 - Dörmögőék kalandjai - 1:51
5 - Frakk, a macskák réme - 1:55
6 - Mazsola és Tádé - Hol az a Tádé? - 1:36

1971-72/2005 - dvd/iso - 4,12 GB - 720x576 - 32/48 - 1:21:23+10:09
[HIDE-THANKS]
Kód:
https://data.hu/get/11378200/D1612i.part1.rar
https://data.hu/get/11378199/D1612i.part2.rar
https://data.hu/get/11378198/D1612i.part3.rar
https://data.hu/get/11378202/D1612i.part4.rar
https://data.hu/get/11378197/D1612i.part5.rar
[/HIDE-THANKS]

1971-72/2005 - dvdrip - avi - 807 MB - 720x544 px - 192 kbps - 1:21:27
[HIDE-THANKS]
Kód:
https://data.hu/get/10656616/D1612v.part01.rar
https://data.hu/get/10656609/D1612v.part02.rar
https://data.hu/get/10656612/D1612v.part03.rar
https://data.hu/get/10656615/D1612v.part04.rar
https://data.hu/get/10656617/D1612v.part05.rar
https://data.hu/get/10656608/D1612v.part06.rar
https://data.hu/get/10656614/D1612v.part07.rar
https://data.hu/get/10656611/D1612v.part08.rar
https://data.hu/get/10656613/D1612v.part09.rar
[/HIDE-THANKS]
vagy
[HIDE-THANKS]
Kód:
https://data.hu/get/10656610/D1612.rar
[/HIDE-THANKS]
 

papadi

Állandó Tag
Állandó Tag


Frakk - Macskabál
01 - Karácsonyi angyalkák - 8:05
02 - Macskabál - 6:48
03 - Számtanóra - 6:46
04 - A sonka ízű sajt - 6:29
05 - A szomszéd kakas - 6:45
06 - Vándorcirkusz - 6:38
07 - Kedves emlék - 6:01
08 - Lábnyomok a vetésben - 6:36
09 - Beteglátogatók - 6:36
10 - A kerékpár - 6:15
11 - Majd mi megmutatjuk - 6:56
12 - Ó, mely sok hal... - 6:56
13 - A megszokott kerékvágás - 6:23

Extra:
Bálint Ágnes emlékére - 24:56
Gyerekeknek ajánljuk (csak a dvd-n):
1 - Frakk, kolbászkiállítás - 3:23
2 - Frakk, fő a kényelem - 1:58
3 - Frakk, a macskák réme - 1:16
4 - Kukori és Kotkoda - 1:42

1973/2009 - dvd/iso - 5,03 GB - 720x576 - 32/48 - 1:27:14+33:15
[HIDE-THANKS]
Kód:
https://data.hu/get/11378330/D1623i.part1.rar
https://data.hu/get/11378328/D1623i.part2.rar
https://data.hu/get/11378332/D1623i.part3.rar
https://data.hu/get/11378327/D1623i.part4.rar
https://data.hu/get/11378326/D1623i.part5.rar
https://data.hu/get/11378329/D1623i.part6.rar
[/HIDE-THANKS]

1973/2009 - dvdrip - avi - 1,08 GB - 720x544 px - 192 kbps - 1:27:14+24:56
[HIDE-THANKS]
Kód:
https://data.hu/get/10656797/D1623v.part01.rar
https://data.hu/get/10656801/D1623v.part02.rar
https://data.hu/get/10656804/D1623v.part03.rar
https://data.hu/get/10656807/D1623v.part04.rar
https://data.hu/get/10656803/D1623v.part05.rar
https://data.hu/get/10656794/D1623v.part06.rar
https://data.hu/get/10656798/D1623v.part07.rar
https://data.hu/get/10656799/D1623v.part08.rar
https://data.hu/get/10656808/D1623v.part09.rar
https://data.hu/get/10656806/D1623v.part10.rar
https://data.hu/get/10656800/D1623v.part11.rar
https://data.hu/get/10656795/D1623v.part12.rar
[/HIDE-THANKS]
vagy
[HIDE-THANKS]
Kód:
https://data.hu/get/10656802/D1623.rar
[/HIDE-THANKS]
 

papadi

Állandó Tag
Állandó Tag


Frakk, a macskák réme
01 - De jó sport a foci - 7:08
02 - Vegyünk neki labdát - 8:12
03 - A művelt eb - 7:36
04 - Egér pongyolában - 7:50
05 - Nyesőolló díszdobozban - 7:27
06 - Egy tollseprű tündöklése - 7:54
07 - Hajrá, vadmacskák! - 7:48
08 - Ki táncol Lukréciával? - 7:46
09 - A falkatárs - 8:07
10 - A csúzli - 7:57
11 - Gumicsont - 7:30
12 - Cinkemama küldi - 7:32
13 - Mit hoz a Télapó? - 7:48

Extrák (csak a dvd-n):
1 - Frakk és a többiek
Mi újság a Futrinka utcában? - 3:14
Mazsola és Tádé - 2:46
Kukori és Kotkoda - 4:16
2 - Kutyaszáj, macskaszáj - 4:02
3 - Frakk macskatorpedója (játék) 8:07+8:22

1986/2004 - dvd/iso - 7,48 GB - 720x576 - 32/48 - 1:40:42+14:18+16:29
[HIDE-THANKS]
Kód:
https://data.hu/get/11378658/D1624i.part1.rar
https://data.hu/get/11378653/D1624i.part2.rar
https://data.hu/get/11378652/D1624i.part3.rar
https://data.hu/get/11378656/D1624i.part4.rar
https://data.hu/get/11378655/D1624i.part5.rar
https://data.hu/get/11378660/D1624i.part6.rar
https://data.hu/get/11378659/D1624i.part7.rar
[/HIDE-THANKS]

1986/2004 - dvdrip - avi - 989 MB - 720x544 px - 192 kbps - 1:40:42
[HIDE-THANKS]
Kód:
https://data.hu/get/10657429/D1624v.part01.rar
https://data.hu/get/10657436/D1624v.part02.rar
https://data.hu/get/10657428/D1624v.part03.rar
https://data.hu/get/10657424/D1624v.part04.rar
https://data.hu/get/10657434/D1624v.part05.rar
https://data.hu/get/10657430/D1624v.part06.rar
https://data.hu/get/10657431/D1624v.part07.rar
https://data.hu/get/10657433/D1624v.part08.rar
https://data.hu/get/10657435/D1624v.part09.rar
https://data.hu/get/10657425/D1624v.part10.rar
[/HIDE-THANKS]
vagy
[HIDE-THANKS]
Kód:
https://data.hu/get/10657427/D1624.rar
[/HIDE-THANKS]
 

papadi

Állandó Tag
Állandó Tag


Frakk - Kolbászkiállítás
01 - Kis kacsa fürdik - 6:07
02 - Csónaktúra - 6:42
03 - Egy cica… két cica... - 6:21
04 - Oh, az édes otthon - 7:26
05 - Rézlakodalom - 9:13
06 - Kolbászkiállítás - 8:12
07 - Régiségek - 8:14
08 - Hol vadász, hol juhász - 8:13
09 - A kiskutya pizsamája - 8:08
10 - Az irigy kutya karácsonya - 7:49
11 - Gyere, kiskutyám! - 8:04
12 - A gyűjtemény - 8:17
13 - Zöld erdőben jártam... - 8:07

Extra (csak a dvd-n):
Bálint Ágnes emlékére - 24:56
Gyerekeknek ajánljuk:
1 - Frakk, macskabál - 2:06
2 - Frakk, fő a kényelem - 1:58
3 - Frakk, a macskák réme - 1:16
4 - Kukori és Kotkoda - 1:42

1987/2009 - dvd/iso - 5,54 GB - 720x576 - 32/48 - 1:43:53+24:56+7:02
[HIDE-THANKS]
Kód:
https://data.hu/get/11378822/D2240i.part1.rar
https://data.hu/get/11378823/D2240i.part2.rar
https://data.hu/get/11378827/D2240i.part3.rar
https://data.hu/get/11378825/D2240i.part4.rar
https://data.hu/get/11378824/D2240i.part5.rar
https://data.hu/get/11378821/D2240i.part6.rar
[/HIDE-THANKS]

1987/2009 - dvdrip - avi - 0,97 GB - 720x544 px - 192 kbps - 1:40:55
[HIDE-THANKS]
Kód:
https://data.hu/get/10657700/D2240v.part01.rar
https://data.hu/get/10657707/D2240v.part02.rar
https://data.hu/get/10657703/D2240v.part03.rar
https://data.hu/get/10657705/D2240v.part04.rar
https://data.hu/get/10657704/D2240v.part05.rar
https://data.hu/get/10657702/D2240v.part06.rar
https://data.hu/get/10657711/D2240v.part07.rar
https://data.hu/get/10657712/D2240v.part08.rar
https://data.hu/get/10657706/D2240v.part09.rar
https://data.hu/get/10657708/D2240v.part10.rar
[/HIDE-THANKS]
vagy
[HIDE-THANKS]
Kód:
https://data.hu/get/10657710/D2240.rar
[/HIDE-THANKS]
 

papadi

Állandó Tag
Állandó Tag


Rudolf, a rénszarvas
(Rudolph the Red-Noised Reinder: The Movie)
Amerikai rajzfilm (1998)
Rendezte: Bill Kowalchuk
Hang: magyar, angol

A decemberi ünnepek nem múlhatnak el ajándékozás és persze az ajándékokat éjszaka a cipőkbe és a fák alá csempésző Mikulás nélkül. Az őszszakállú meglepetésosztó pedig természetesen nem lehet meg a maga szánkója és az azt húzó rénszarvasok nélkül, akik közül a legkülönlegesebb a fiatal Rudolf, a piros, világító orrú szánhúzó.
Rudolf barátja, Zoe, a gonosz Stormella fogságába esik, majd így jár a kiszabadítására induló főhősünk és mackó társa, Leonard is. Nemsokára azonban minden erejüket megfeszítve meg kell próbálniuk a szökést, ugyanis csak ők tudnak arról, hogy Stormella az évszázad jégviharának feltámasztásával keresztbe akarja húzni a Mikulás ajándékozási terveit...
(a borítóról)

Extra: Eredeti előzetes (a film végéhez csatolva)

dvd/iso - 4,20 GB - 720x576 - 192 kbps - 1:19:55 (1:22:04) (prémium)
[HIDE-THANKS]
Kód:
https://data.hu/get/11404822/D0016i.part1.rar
https://data.hu/get/11404813/D0016i.part2.rar
https://data.hu/get/11404828/D0016i.part3.rar
https://data.hu/get/11404814/D0016i.part4.rar
https://data.hu/get/11404826/D0016i.part5.rar
[/HIDE-THANKS]

Média információ:
I:\0000\D0016\D0016\Rudolf a rénszarvas\Rudolf a rénszarvas.avi
General
Complete name : I:\0000\D0016\D0016\Rudolf a rénszarvas\Rudolf a rénszarvas.avi
Format : AVI
Format/Info : Audio Video Interleave
File size : 1.06 GiB
Duration : 1 h 22 min
Overall bit rate mode : Variable
Overall bit rate : 1 857 kb/s
Writing application : VirtualDubMod 1.5.4.1 (build 2178/release)
Writing library : VirtualDubMod build 2178/release
Video #0
ID : 0
Format : MPEG-4 Visual
Format profile : Advanced Simple@L5
Format settings, BVOP : 1
Format settings, QPel : No
Format settings, GMC : No warppoints
Format settings, Matrix : Custom
Codec ID : XVID
Codec ID/Hint : XviD
Duration : 1 h 22 min
Bit rate : 1 606 kb/s
Width : 720 pixels
Height : 400 pixels
Display aspect ratio : 16:9
Frame rate : 25.000 FPS
Color space : YUV
Chroma subsampling : 4:2:0
Bit depth : 8 bits
Scan type : Progressive
Compression mode : Lossy
Bits/(Pixel*Frame) : 0.223
Stream size : 943 MiB (86%)
Writing library : XviD 1.2.1 (UTC 2008-12-04)
Audio #1
ID : 1
Format : MPEG Audio
Format version : Version 1
Format profile : Layer 3
Mode : Joint stereo
Mode extension : MS Stereo
Codec ID : 55
Codec ID/Hint : MP3
Duration : 1 h 22 min
Bit rate mode : Variable
Bit rate : 115 kb/s
Nominal bit rate : 128 kb/s
Channel(s) : 2 channels
Sampling rate : 48.0 kHz
Compression mode : Lossy
Stream size : 67.6 MiB (6%)
Alignment : Aligned on interleaves
Interleave, duration : 24 ms (0.60 video frame)
Interleave, preload duration : 523 ms
Writing library : LAME3.98r
Encoding settings : -m j -V 4 -q 2 -lowpass 17 --abr 128
Audio #2
ID : 2
Format : MPEG Audio
Format version : Version 1
Format profile : Layer 3
Mode : Joint stereo
Codec ID : 55
Codec ID/Hint : MP3
Duration : 1 h 22 min
Bit rate mode : Variable
Bit rate : 115 kb/s
Nominal bit rate : 128 kb/s
Channel(s) : 2 channels
Sampling rate : 48.0 kHz
Compression mode : Lossy
Stream size : 67.5 MiB (6%)
Alignment : Aligned on interleaves
Interleave, duration : 24 ms (0.60 video frame)
Interleave, preload duration : 514 ms
Writing library : LAME3.98r
Encoding settings : -m j -V 4 -q 2 -lowpass 17 --abr 128



dvdrip - avi - 1,06 GB - 720x400 px - 115 kbps - 1:19:55 (1:22:04)
[HIDE-THANKS]
Kód:
https://data.hu/get/10906424/D0016.rar
[/HIDE-THANKS]
vagy free
[HIDE-THANKS]
Kód:
https://data.hu/get/11408433/D0016av.part1.rar
https://data.hu/get/11408446/D0016av.part2.rar
https://data.hu/get/11408460/D0016av.part3.rar
https://data.hu/get/11408438/D0016av.part4.rar
https://data.hu/get/11408441/D0016av.part5.rar
https://data.hu/get/11408457/D0016av.part6.rar
[/HIDE-THANKS]
 

papadi

Állandó Tag
Állandó Tag


Mirr Murr a kandúr - A kiscsacsi kalandjai / Mirr Murr kalandjai

Magyar bábfilmsorozat (1972-1975)
Írta: Csukás István
Mesélő: Halász Judit
Zene: Pethő Zsolt
Rendezte: Foky Ottó
(2007 - dvdrip - avi - 720x736 és 720x544 px - 128 kbps)

Ajánló a borítóról:
Csukás István közkedvelt figurája Mirr Murr, a magyar meseirodalom klasszikus szereplője, a gyermekek és a gyermeki lelkületű felnőttek kedvence. Kalandjaira "Orzia Triznyákkal" talán mindenki emlékszik. Hiszen együtt fedezik fel a léghajót, a "Gombszeműt" és "Bóbicét", valamint együtt lesznek gólkirályok és útitársak egy ládában. Megannyi felejthetetlen történet, amely felhőtlen szórakozást ígér.



Mirr Murr a kandúr 1.
A kiscsacsi kalandjai

1. A kiscsacsi ismerkedik (5:27)
2. Mirr-Murr a kandúr (5:49)
3. Mitől álmos a szék (5:54)
4. Mirr-Murr a gólkirály (6:09)
5. Cin-Cin a kisegér (5:41)
6. Gombszemű bejelenti a tavaszt (5:32)
7. Tengeri csata (5:36)
8. Föl a csillárig (5:42)
9. A kiscsacsi képeskönyve (5:10)
10. Mirr-Murr névnapja (4:53)
11. Bujdosás a kamrában (6:14)
12. Mirr-Murr híres festő lesz (5:54)
13. Bóbice énekórát ad (5:29)

Extra (csak a dvd-n):
Előzetesek

Média információ:
Video:
Kodek: MPEG-1/2 Video (mpgv)
Felbontás: 720x576
Képkockasebesség: 25
Hang:
Kodek: A52 Audio (aka AC3) (a52)
Csatornák: Sztereó
Mintavételi frekvencia: 48000 Hz
Bitsebesség: 192 kb/mp
Formátum: iso
Méret: 4,19 GB
Műsoridő: 1:13:37
(prémium)
[HIDE-THANKS]
Kód:
https://data.hu/get/11445858/D1629i.part1.rar
https://data.hu/get/11445855/D1629i.part2.rar
https://data.hu/get/11445859/D1629i.part3.rar
https://data.hu/get/11445856/D1629i.part4.rar
https://data.hu/get/11445857/D1629i.part5.rar
[/HIDE-THANKS]



Formátum: dvdrip/avi
Méret: 1,09 GB
Felbontás: 720x544
Mintavételi frekvencia: 48000 Hz
Bitsebesség: 128 kbps
Műsoridő: 1:13:37
Részletes média információ:
C:\Users\user\Videos\01 - A kiscsacsi ismerkedik.avi
General
Complete name : C:\Users\user\Videos\01 - A kiscsacsi ismerkedik.avi
Format : AVI
Format/Info : Audio Video Interleave
File size : 83.1 MiB
Duration : 5 min
Overall bit rate : 2 127 kb/s
Writing application : Lavf58.17.100
Video #0
ID : 0
Format : MPEG-4 Visual
Format profile : Advanced Simple@L1
Format settings, BVOP : 3
Format settings, QPel : No
Format settings, GMC : No warppoints
Format settings, Matrix : Default (H.263)
Codec ID : DIVX
Codec ID/Info : Project Mayo
Codec ID/Hint : DivX 4
Duration : 5 min
Bit rate : 1 985 kb/s
Width : 720 pixels
Height : 544 pixels
Display aspect ratio : 4:3
Frame rate : 25.000 FPS
Color space : YUV
Chroma subsampling : 4:2:0
Bit depth : 8 bits
Scan type : Interlaced
Original scan type : Progressive
Scan order : Bottom Field First
Compression mode : Lossy
Bits/(Pixel*Frame) : 0.203
Stream size : 77.6 MiB (93%)
Writing library : Lavc58.19.104
Audio #1
ID : 1
Format : MPEG Audio
Format version : Version 1
Format profile : Layer 3
Codec ID : 55
Codec ID/Hint : MP3
Duration : 5 min
Bit rate mode : Constant
Bit rate : 128 kb/s
Channel(s) : 2 channels
Sampling rate : 48.0 kHz
Compression mode : Lossy
Stream size : 5.00 MiB (6%)
Alignment : Aligned on interleaves
Interleave, duration : 24 ms (0.60 video frame)
Interleave, preload duration : 24 ms
[HIDE-THANKS]
Kód:
https://data.hu/get/11444104/D1629a.part1.rar
https://data.hu/get/11444108/D1629a.part2.rar
[/HIDE-THANKS]
vagy free
[HIDE-THANKS]
Kód:
https://data.hu/get/11444101/D1629av.part1.rar
https://data.hu/get/11444102/D1629av.part2.rar
https://data.hu/get/11444106/D1629av.part3.rar
https://data.hu/get/11444103/D1629av.part4.rar
https://data.hu/get/11444107/D1629av.part5.rar
https://data.hu/get/11444110/D1629av.part6.rar
[/HIDE-THANKS]
 

papadi

Állandó Tag
Állandó Tag


Mirr Murr a kandúr 2.
Mirr-Murr kandúr kalandjai

1. Mirr-Murr kabátzsebben (7:06)
2. Mirr-Murr az oroszlán (6:56)
3. Legyünk kóbormacskák (7:08)
4. A három próba (7:03)
5. A titkos jel (7:09)
6. A nagy odvas kémény (7:07)
7. Segítenek Ploma Pálnak (7:12)
8. Pintyőke cirkusz világszám (7:09)
9. Ferdinánd a gyalogbéka (7:12)
10. A hétfejű tűzokádó sárkány (6:48)
11. A füttyember (7:22)
12. A varázstávcső (7:10)
13. Ajándékba adják a lábnyomukat (7:30)

Extra (csak a dvd-n):
Előzetesek

Média információ:
Video:
Kodek: MPEG-1/2 Video (mpgv)
Felbontás: 720x576
Képkockasebesség: 25
Hang:
Kodek: A52 Audio (aka AC3) (a52)
Csatornák: Sztereó
Mintavételi frekvencia: 48000 Hz
Bitsebesség: 192 kb/mp
Formátum: iso
Méret: 4,22 GB
Műsoridő: 1:33:36
(prémium)
[HIDE-THANKS]
Kód:
https://data.hu/get/11444910/D1630i.part1.rar
https://data.hu/get/11444902/D1630i.part2.rar
https://data.hu/get/11444909/D1630i.part3.rar
https://data.hu/get/11444905/D1630i.part4.rar
https://data.hu/get/11444895/D1630i.part5.rar
[/HIDE-THANKS]



Formátum: dvdrip/avi
Méret: 1,37 GB
Felbontás: 720x544
Mintavételi frekvencia: 48000 Hz
Bitsebesség: 128 kbps
Műsoridő: 1:32:59

Részletes média információ:
C:\Users\user\Videos\01 - Mirr-Murr a kabátzsebben.avi
General
Complete name : C:\Users\user\Videos\01 - Mirr-Murr a kabátzsebben.avi
Format : AVI
Format/Info : Audio Video Interleave
File size : 109 MiB
Duration : 7 min
Overall bit rate : 2 134 kb/s
Writing application : Lavf58.17.100
Video #0
ID : 0
Format : MPEG-4 Visual
Format profile : Advanced Simple@L1
Format settings, BVOP : 3
Format settings, QPel : No
Format settings, GMC : No warppoints
Format settings, Matrix : Default (H.263)
Codec ID : DIVX
Codec ID/Info : Project Mayo
Codec ID/Hint : DivX 4
Duration : 7 min
Bit rate : 1 993 kb/s
Width : 720 pixels
Height : 544 pixels
Display aspect ratio : 4:3
Frame rate : 25.000 FPS
Color space : YUV
Chroma subsampling : 4:2:0
Bit depth : 8 bits
Scan type : Interlaced
Original scan type : Progressive
Scan order : Bottom Field First
Compression mode : Lossy
Bits/(Pixel*Frame) : 0.204
Stream size : 101 MiB (93%)
Writing library : Lavc58.19.104
Audio #1
ID : 1
Format : MPEG Audio
Format version : Version 1
Format profile : Layer 3
Codec ID : 55
Codec ID/Hint : MP3
Duration : 7 min
Bit rate mode : Constant
Bit rate : 128 kb/s
Channel(s) : 2 channels
Sampling rate : 48.0 kHz
Compression mode : Lossy
Stream size : 6.51 MiB (6%)
Alignment : Aligned on interleaves
Interleave, duration : 24 ms (0.60 video frame)
Interleave, preload duration : 24 ms
[HIDE-THANKS]
Kód:
https://data.hu/get/11444898/D1630a.part1.rar
https://data.hu/get/11444904/D1630a.part2.rar
[/HIDE-THANKS]
vagy free
[HIDE-THANKS]
Kód:
https://data.hu/get/11444892/D1630av.part1.rar
https://data.hu/get/11444893/D1630av.part2.rar
https://data.hu/get/11444900/D1630av.part3.rar
https://data.hu/get/11444912/D1630av.part4.rar
https://data.hu/get/11444903/D1630av.part5.rar
https://data.hu/get/11444891/D1630av.part6.rar
https://data.hu/get/11444894/D1630av.part7.rar
https://data.hu/get/11444911/D1630av.part8.rar
[/HIDE-THANKS]
 

papadi

Állandó Tag
Állandó Tag


Mirr Murr a kandúr 3.
Mirr-Murr kandúr kalandjai (folytatás)

1. Macska-egér szerenád (7:26)
2. Jelmezbál (6:46)
3. Április bolondja (7:02)
4. A többszörös világbajnok (7:23)
5. Nagytakarítás (7:28)
6. Csináljunk hóembert! (7:10)
7. Tánc és illemiskola (7:20)
8. Játsszunk együtt! (7:33)
9. Sün Sámuel bekopog (7:23)
10. Az űr-macska (7:14)
11. Sakk-matt (7:12)
12. Húsvéti locsolás (7:26)
13. Csoportkép (7:13)

Extra (csak a dvd-n):
Előzetesek

Média információ:
Video:
Kodek: MPEG-1/2 Video (mpgv)
Felbontás: 720x576
Képkockasebesség: 25
Hang:
Kodek: A52 Audio (aka AC3) (a52)
Csatornák: Sztereó
Mintavételi frekvencia: 48000 Hz
Bitsebesség: 192 kb/mp
Formátum: iso
Méret: 3,96 GB
Műsoridő: 1:34:40
(prémium)
[HIDE-THANKS]
Kód:
https://data.hu/get/11445654/D1631i.part1.rar
https://data.hu/get/11445653/D1631i.part2.rar
https://data.hu/get/11445650/D1631i.part3.rar
https://data.hu/get/11445657/D1631i.part4.rar
[/HIDE-THANKS]



Formátum: dvdrip/avi
Méret: 933 MB
Felbontás: 720x544
Mintavételi frekvencia: 48000 Hz
Bitsebesség: 128 kbps
Műsoridő: 1:34:40
Részletes média információ:
I:\0000\Mirr Murr a kandúr 3\01 - Macska-egér szerenád.avi
General
Complete name : I:\0000\Mirr Murr a kandúr 3\01 - Macska-egér szerenád.avi
Format : AVI
Format/Info : Audio Video Interleave
File size : 74.0 MiB
Duration : 7 min
Overall bit rate : 1 391 kb/s
Writing application : VirtualDubMod 1.5.4.1 (build 2178/release)
Writing library : VirtualDubMod build 2178/release
Video #0
ID : 0
Format : MPEG-4 Visual
Format profile : Advanced Simple@L5
Format settings, BVOP : 1
Format settings, QPel : No
Format settings, GMC : No warppoints
Format settings, Matrix : Custom
Codec ID : XVID
Codec ID/Hint : XviD
Duration : 7 min
Bit rate : 1 255 kb/s
Width : 720 pixels
Height : 544 pixels
Display aspect ratio : 4:3
Frame rate : 25.000 FPS
Color space : YUV
Chroma subsampling : 4:2:0
Bit depth : 8 bits
Scan type : Progressive
Compression mode : Lossy
Bits/(Pixel*Frame) : 0.128
Stream size : 66.8 MiB (90%)
Writing library : XviD 1.2.1 (UTC 2008-12-04)
Audio #1
ID : 1
Format : MPEG Audio
Format version : Version 1
Format profile : Layer 3
Mode : Joint stereo
Mode extension : MS Stereo
Codec ID : 55
Codec ID/Hint : MP3
Duration : 7 min
Bit rate mode : Constant
Bit rate : 128 kb/s
Channel(s) : 2 channels
Sampling rate : 48.0 kHz
Compression mode : Lossy
Stream size : 6.81 MiB (9%)
Alignment : Aligned on interleaves
Interleave, duration : 80 ms (2.00 video frames)
Interleave, preload duration : 504 ms
Writing library : LAME3.98r
Encoding settings : -m j -V 4 -q 2 -lowpass 17 -b 128
[HIDE-THANKS]
Kód:
https://data.hu/get/11445647/D1631a.rar
[/HIDE-THANKS]
vagy free
[HIDE-THANKS]
Kód:
https://data.hu/get/11445652/D1631av.part1.rar
https://data.hu/get/11445655/D1631av.part2.rar
https://data.hu/get/11445656/D1631av.part3.rar
https://data.hu/get/11445648/D1631av.part4.rar
https://data.hu/get/11445651/D1631av.part5.rar
[/HIDE-THANKS]
 

papadi

Állandó Tag
Állandó Tag


Mirr-Murr a kandúr 4.
Mirr-Murr kandúr kalandjai (folytatás)

1. A pingvinnek hűtőszekrény kell (7:27)
2. Lárifári csetepaté (7:33)
3. Az idomított vekkeróra (7:23)
4. Kártyavár (7:23)
5. Hintőporos hóesés (7:10)
6. Az igazi bicikli (7:20)
7. A holdkóros egér (7:06)
8. Tengerparti napsütés (7:09)
9. A botfülű tücsök (7:16)
10. A tüsszentő szódásüveg (7:30)
11. Leszállított áru dinnye (7:32)
12. A lakodalmi sósperec (7:20)
13. A bűvös sapka (7:28)

Extra (csak a dvd-n):
Előzetesek

Média információ:
Video:
Kodek: MPEG-1/2 Video (mpgv)
Felbontás: 720x576
Képkockasebesség: 25
Hang:
Kodek: A52 Audio (aka AC3) (a52)
Csatornák: Sztereó
Mintavételi frekvencia: 48000 Hz
Bitsebesség: 192 kb/mp
Formátum: iso
Méret: 4,00 GB
Műsoridő: 1:35:44
(prémium)
[HIDE-THANKS]
Kód:
https://data.hu/get/11445842/D2239i.part1.rar
https://data.hu/get/11445837/D2239i.part2.rar
https://data.hu/get/11445836/D2239i.part3.rar
https://data.hu/get/11445840/D2239i.part4.rar
[/HIDE-THANKS]



Formátum: dvdrip/avi
Méret: 946 MB
Felbontás: 720x544
Mintavételi frekvencia: 48000 Hz
Bitsebesség: 128 kbps
Műsoridő: 1:35:44
Részletes média információ:
I:\0000\Mirr Murr a kandúr 4\01 - A pingvinnek hütöszekrény kell.avi
General
Complete name : I:\0000\Mirr Murr a kandúr 4\01 - A pingvinnek hütöszekrény kell.avi
Format : AVI
Format/Info : Audio Video Interleave
File size : 73.8 MiB
Duration : 7 min
Overall bit rate : 1 384 kb/s
Writing application : VirtualDubMod 1.5.4.1 (build 2178/release)
Writing library : VirtualDubMod build 2178/release
Video #0
ID : 0
Format : MPEG-4 Visual
Format profile : Advanced Simple@L5
Format settings, BVOP : 1
Format settings, QPel : No
Format settings, GMC : No warppoints
Format settings, Matrix : Custom
Codec ID : XVID
Codec ID/Hint : XviD
Duration : 7 min
Bit rate : 1 249 kb/s
Width : 720 pixels
Height : 544 pixels
Display aspect ratio : 4:3
Frame rate : 25.000 FPS
Color space : YUV
Chroma subsampling : 4:2:0
Bit depth : 8 bits
Scan type : Progressive
Compression mode : Lossy
Bits/(Pixel*Frame) : 0.128
Stream size : 66.6 MiB (90%)
Writing library : XviD 1.2.1 (UTC 2008-12-04)
Audio #1
ID : 1
Format : MPEG Audio
Format version : Version 1
Format profile : Layer 3
Mode : Joint stereo
Mode extension : MS Stereo
Codec ID : 55
Codec ID/Hint : MP3
Duration : 7 min
Bit rate mode : Constant
Bit rate : 128 kb/s
Channel(s) : 2 channels
Sampling rate : 48.0 kHz
Compression mode : Lossy
Stream size : 6.82 MiB (9%)
Alignment : Aligned on interleaves
Interleave, duration : 80 ms (2.00 video frames)
Interleave, preload duration : 504 ms
Writing library : LAME3.98r
Encoding settings : -m j -V 4 -q 2 -lowpass 17 -b 128
[HIDE-THANKS]
Kód:
https://data.hu/get/11445835/D2239a.rar
[/HIDE-THANKS]
vagy free
[HIDE-THANKS]
Kód:
https://data.hu/get/11445839/D2239av.part1.rar
https://data.hu/get/11445838/D2239av.part2.rar
https://data.hu/get/11445841/D2239av.part3.rar
https://data.hu/get/11445833/D2239av.part4.rar
https://data.hu/get/11445834/D2239av.part5.rar
[/HIDE-THANKS]
 

papadi

Állandó Tag
Állandó Tag
2978480-20181119-P0GT5o.jpg


Tesz-Vesz Város - Rejtélyek Tesz-Vesz Városban
(Busytown Mysteries - Hurray for Huckle!)
Írta: Richard Scarry
Rendezte: Ken Cunningham, Larry Jacobs
Kanadai rajzfilmsorozat (2007/2009)
Hang: magyar, angol
Felirat: nincs

Tesz-Vesz város varázslatos hely, telve élettel, energiával. Az ének, a móka meg a kacagás körbeveszi a várost és kitölti lakóinak életét. Kutyák, cicák, malacok, kukacok és sok más kedves állat napi teendőin keresztül a legkisebbek is könnyedén megtanulhatják az élet csínját-bínját. Megtudhatják, hogy mi történik a postán, hová kerül a sok szemét, mit csinálnak a tűzoltók, rendőrök, mentők, milyen járművekkel közlekednek vagy éppen hogyan vizsgálja betegeit Leó doktor. Richard Scarry mára klasszikussá vált gyermekkönyv-sorozatának rajzfilm változata több száz országban vált milliónyi gyermek kedvencévé, most végre megvásárolható DVD-n! (a borítóról)

A főcímdal:
Te és én
Mi megoldjuk a rejtélyt
Cicó
Tesz-Vesz Városban
Én és te
És a csapat nyomra lel majd
Cicó
Tesz-Vesz Városban
Együtt
Rájövünk majd
Ugye Cicó
Tesz-Vesz Városban
Nem vitás
Hogy meglesz a megoldás
Cicó
Tesz-Vesz Városban
Irány Tesz-Vesz Város!
Te és én - Te és én
Biztos rájövünk - Biztos rájövünk
Ugye Cicó - Éljen Cicó!
Tesz-Vesz Városban - Tesz-Vesz Városban
Megoldunk minden rejtélyt a városban


2978481-20181119-BFYz6K.jpg


Tesz-Vesz Város - Rejtélyek Tesz-Vesz Városban 1
1a - A nagy alma
1b - Az eltűnt ubimobil
2a - A kerék
2b - A festékbolt
3a - Az elveszett papagáj
3b - A szörnyeteg

2978482-20181119-na5Dqp.jpg


Formátum: dvdrip/avi
Méret: 901 MB
Felbontás: 720x544
Mintavételi frekvencia: 48000 Hz
Bitsebesség: 128 kbps
Műsoridő: 1:12:03
Részletes média információ:
I:\0000\Rejtélyek Tesz-Vesz Városban 1\01 - Rejtélyek Tesz-Vesz Városban 1 1-2.avi
General
Complete name : I:\0000\Rejtélyek Tesz-Vesz Városban 1\01 - Rejtélyek Tesz-Vesz Városban 1 1-2.avi
Format : AVI
Format/Info : Audio Video Interleave
File size : 300 MiB
Duration : 24 min
Overall bit rate : 1 746 kb/s
Writing application : VirtualDubMod 1.5.4.1 (build 2178/release)
Writing library : VirtualDubMod build 2178/release
Video #0
ID : 0
Format : MPEG-4 Visual
Format profile : Advanced Simple@L5
Format settings, BVOP : 1
Format settings, QPel : No
Format settings, GMC : No warppoints
Format settings, Matrix : Custom
Codec ID : XVID
Codec ID/Hint : XviD
Duration : 24 min
Bit rate : 1 480 kb/s
Width : 720 pixels
Height : 544 pixels
Display aspect ratio : 4:3
Frame rate : 25.000 FPS
Color space : YUV
Chroma subsampling : 4:2:0
Bit depth : 8 bits
Scan type : Progressive
Compression mode : Lossy
Bits/(Pixel*Frame) : 0.151
Stream size : 254 MiB (85%)
Writing library : XviD 1.2.1 (UTC 2008-12-04)
Audio #1
ID : 1
Format : MPEG Audio
Format version : Version 1
Format profile : Layer 3
Mode : Joint stereo
Mode extension : MS Stereo
Codec ID : 55
Codec ID/Hint : MP3
Duration : 24 min
Bit rate mode : Constant
Bit rate : 128 kb/s
Channel(s) : 2 channels
Sampling rate : 48.0 kHz
Compression mode : Lossy
Stream size : 22.0 MiB (7%)
Alignment : Aligned on interleaves
Interleave, duration : 80 ms (2.00 video frames)
Interleave, preload duration : 504 ms
Writing library : LAME3.98r
Encoding settings : -m j -V 4 -q 2 -lowpass 17 -b 128
Audio #2
ID : 2
Format : MPEG Audio
Format version : Version 1
Format profile : Layer 3
Mode : Joint stereo
Mode extension : MS Stereo
Codec ID : 55
Codec ID/Hint : MP3
Duration : 24 min
Bit rate mode : Constant
Bit rate : 128 kb/s
Channel(s) : 2 channels
Sampling rate : 48.0 kHz
Compression mode : Lossy
Stream size : 22.0 MiB (7%)
Alignment : Aligned on interleaves
Interleave, duration : 80 ms (2.00 video frames)
Interleave, preload duration : 504 ms
Writing library : LAME3.98r
Encoding settings : -m j -V 4 -q 2 -lowpass 17 -b 128
[HIDE-THANKS]
Kód:
https://data.hu/get/11528321/D2909a.rar
[/HIDE-THANKS]
vagy free
[HIDE-THANKS]
Kód:
https://data.hu/get/11528325/D2909av.part1.rar
https://data.hu/get/11528323/D2909av.part2.rar
https://data.hu/get/11528324/D2909av.part3.rar
https://data.hu/get/11528322/D2909av.part4.rar
https://data.hu/get/11528320/D2909av.part5.rar
[/HIDE-THANKS]

2978483-20181119-oYEiHU.jpg


Tesz-Vesz Város - Rejtélyek Tesz-Vesz Városban 2
4a - A nagy buborékrejtély
4b - Az árva kis tojás
5a - Szellemjárás a világítótoronyban
5b - Kukorica kalamajka
6a - A ragacs rejtély
6b - Fel, fel a magasba

2978484-20181119-rZkpLh.jpg


Formátum: dvdrip/avi
Méret: 901 MB
Felbontás: 720x544
Mintavételi frekvencia: 48000 Hz
Bitsebesség: 128 kbps
Műsoridő: 1:12:01
Részletes média információ:
I:\0000\Rejtélyek Tesz-Vesz Városban 2\04 - Rejtélyek Tesz-Vesz Városban 1 7-8.avi
General
Complete name : I:\0000\Rejtélyek Tesz-Vesz Városban 2\04 - Rejtélyek Tesz-Vesz Városban 1 7-8.avi
Format : AVI
Format/Info : Audio Video Interleave
File size : 300 MiB
Duration : 24 min
Overall bit rate : 1 746 kb/s
Writing application : VirtualDubMod 1.5.4.1 (build 2178/release)
Writing library : VirtualDubMod build 2178/release
Video #0
ID : 0
Format : MPEG-4 Visual
Format profile : Advanced Simple@L5
Format settings, BVOP : 1
Format settings, QPel : No
Format settings, GMC : No warppoints
Format settings, Matrix : Custom
Codec ID : XVID
Codec ID/Hint : XviD
Duration : 24 min
Bit rate : 1 480 kb/s
Width : 720 pixels
Height : 544 pixels
Display aspect ratio : 4:3
Frame rate : 25.000 FPS
Color space : YUV
Chroma subsampling : 4:2:0
Bit depth : 8 bits
Scan type : Progressive
Compression mode : Lossy
Bits/(Pixel*Frame) : 0.151
Stream size : 254 MiB (85%)
Writing library : XviD 1.2.1 (UTC 2008-12-04)
Audio #1
ID : 1
Format : MPEG Audio
Format version : Version 1
Format profile : Layer 3
Mode : Joint stereo
Mode extension : MS Stereo
Codec ID : 55
Codec ID/Hint : MP3
Duration : 24 min
Bit rate mode : Constant
Bit rate : 128 kb/s
Channel(s) : 2 channels
Sampling rate : 48.0 kHz
Compression mode : Lossy
Stream size : 22.0 MiB (7%)
Alignment : Aligned on interleaves
Interleave, duration : 80 ms (2.00 video frames)
Interleave, preload duration : 504 ms
Writing library : LAME3.98r
Encoding settings : -m j -V 4 -q 2 -lowpass 17 -b 128
Audio #2
ID : 2
Format : MPEG Audio
Format version : Version 1
Format profile : Layer 3
Mode : Joint stereo
Mode extension : MS Stereo
Codec ID : 55
Codec ID/Hint : MP3
Duration : 24 min
Bit rate mode : Constant
Bit rate : 128 kb/s
Channel(s) : 2 channels
Sampling rate : 48.0 kHz
Compression mode : Lossy
Stream size : 22.0 MiB (7%)
Alignment : Aligned on interleaves
Interleave, duration : 80 ms (2.00 video frames)
Interleave, preload duration : 504 ms
Writing library : LAME3.98r
Encoding settings : -m j -V 4 -q 2 -lowpass 17 -b 128
[HIDE-THANKS]
Kód:
https://data.hu/get/11528441/D2910a.rar
[/HIDE-THANKS]
vagy free
[HIDE-THANKS]
Kód:
https://data.hu/get/11528422/D2910av.part1.rar
https://data.hu/get/11528419/D2910av.part2.rar
https://data.hu/get/11528420/D2910av.part3.rar
https://data.hu/get/11528431/D2910av.part4.rar
https://data.hu/get/11528426/D2910av.part5.rar
[/HIDE-THANKS]

2978485-20181119-JfIHso.jpg


Tesz-Vesz Város - Rejtélyek Tesz-Vesz Városban 3
7a - Hat pici muffin
7b - A konzervpiramis rejtélye
8a - A láthatatlan sütitolvaj
8b - A költözés
9a - Szemetelő vadászat
9b - Óriás veszély

2978486-20181119-pMewMI.jpg


Formátum: dvdrip/avi
Méret: 901 MB
Felbontás: 720x544
Mintavételi frekvencia: 48000 Hz
Bitsebesség: 128 kbps
Műsoridő: 1:12:03
Részletes média információ:
I:\0000\Rejtélyek Tesz-Vesz Városban 3\07 - Rejtélyek Tesz-Vesz Városban 1 13-14.avi
General
Complete name : I:\0000\Rejtélyek Tesz-Vesz Városban 3\07 - Rejtélyek Tesz-Vesz Városban 1 13-14.avi
Format : AVI
Format/Info : Audio Video Interleave
File size : 300 MiB
Duration : 24 min
Overall bit rate : 1 746 kb/s
Writing application : VirtualDubMod 1.5.4.1 (build 2178/release)
Writing library : VirtualDubMod build 2178/release
Video #0
ID : 0
Format : MPEG-4 Visual
Format profile : Advanced Simple@L5
Format settings, BVOP : 1
Format settings, QPel : No
Format settings, GMC : No warppoints
Format settings, Matrix : Custom
Codec ID : XVID
Codec ID/Hint : XviD
Duration : 24 min
Bit rate : 1 480 kb/s
Width : 720 pixels
Height : 544 pixels
Display aspect ratio : 4:3
Frame rate : 25.000 FPS
Color space : YUV
Chroma subsampling : 4:2:0
Bit depth : 8 bits
Scan type : Progressive
Compression mode : Lossy
Bits/(Pixel*Frame) : 0.151
Stream size : 254 MiB (85%)
Writing library : XviD 1.2.1 (UTC 2008-12-04)
Audio #1
ID : 1
Format : MPEG Audio
Format version : Version 1
Format profile : Layer 3
Mode : Joint stereo
Mode extension : MS Stereo
Codec ID : 55
Codec ID/Hint : MP3
Duration : 24 min
Bit rate mode : Constant
Bit rate : 128 kb/s
Channel(s) : 2 channels
Sampling rate : 48.0 kHz
Compression mode : Lossy
Stream size : 22.0 MiB (7%)
Alignment : Aligned on interleaves
Interleave, duration : 80 ms (2.00 video frames)
Interleave, preload duration : 504 ms
Writing library : LAME3.98r
Encoding settings : -m j -V 4 -q 2 -lowpass 17 -b 128
Audio #2
ID : 2
Format : MPEG Audio
Format version : Version 1
Format profile : Layer 3
Mode : Joint stereo
Mode extension : MS Stereo
Codec ID : 55
Codec ID/Hint : MP3
Duration : 24 min
Bit rate mode : Constant
Bit rate : 128 kb/s
Channel(s) : 2 channels
Sampling rate : 48.0 kHz
Compression mode : Lossy
Stream size : 22.0 MiB (7%)
Alignment : Aligned on interleaves
Interleave, duration : 80 ms (2.00 video frames)
Interleave, preload duration : 504 ms
Writing library : LAME3.98r
Encoding settings : -m j -V 4 -q 2 -lowpass 17 -b 128
[HIDE-THANKS]
Kód:
https://data.hu/get/11528430/D2911a.rar
[/HIDE-THANKS]
vagy free
[HIDE-THANKS]
Kód:
https://data.hu/get/11528437/D2911av.part1.rar
https://data.hu/get/11528445/D2911av.part2.rar
https://data.hu/get/11528436/D2911av.part3.rar
https://data.hu/get/11528438/D2911av.part4.rar
https://data.hu/get/11528414/D2911av.part5.rar
[/HIDE-THANKS]

2978487-20181119-LffwXo.jpg


Tesz-Vesz Város - Rejtélyek Tesz-Vesz Városban 4
10a - Majomparádé
10b - A titkos klub rejtélye
11a - A játszótér rejtélye
11b - A órakavarodás rejtélye
12a - A sajtautó rejtélye
12b - Hova tűnt a hős?
13a - A szeletelhetetlen kenyér
13b - A kacskaringós záróvonal rejtélye

2978488-20181119-n5dJus.jpg


Formátum: dvdrip/avi
Méret:1,17 GB
Felbontás: 720x544
Mintavételi frekvencia: 48000 Hz
Bitsebesség: 128 kbps
Műsoridő: 1:36:04
Részletes média információ:
I:\0000\Rejtélyek Tesz-Vesz Városban 4\10 - Rejtélyek Tesz-Vesz Városban 1 19-20.avi
General
Complete name : I:\0000\Rejtélyek Tesz-Vesz Városban 4\10 - Rejtélyek Tesz-Vesz Városban 1 19-20.avi
Format : AVI
Format/Info : Audio Video Interleave
File size : 300 MiB
Duration : 24 min
Overall bit rate : 1 746 kb/s
Writing application : VirtualDubMod 1.5.4.1 (build 2178/release)
Writing library : VirtualDubMod build 2178/release
Video #0
ID : 0
Format : MPEG-4 Visual
Format profile : Advanced Simple@L5
Format settings, BVOP : 1
Format settings, QPel : No
Format settings, GMC : No warppoints
Format settings, Matrix : Custom
Codec ID : XVID
Codec ID/Hint : XviD
Duration : 24 min
Bit rate : 1 480 kb/s
Width : 720 pixels
Height : 544 pixels
Display aspect ratio : 4:3
Frame rate : 25.000 FPS
Color space : YUV
Chroma subsampling : 4:2:0
Bit depth : 8 bits
Scan type : Progressive
Compression mode : Lossy
Bits/(Pixel*Frame) : 0.151
Stream size : 254 MiB (85%)
Writing library : XviD 1.2.1 (UTC 2008-12-04)
Audio #1
ID : 1
Format : MPEG Audio
Format version : Version 1
Format profile : Layer 3
Mode : Joint stereo
Mode extension : MS Stereo
Codec ID : 55
Codec ID/Hint : MP3
Duration : 24 min
Bit rate mode : Constant
Bit rate : 128 kb/s
Channel(s) : 2 channels
Sampling rate : 48.0 kHz
Compression mode : Lossy
Stream size : 22.0 MiB (7%)
Alignment : Aligned on interleaves
Interleave, duration : 80 ms (2.00 video frames)
Interleave, preload duration : 504 ms
Writing library : LAME3.98r
Encoding settings : -m j -V 4 -q 2 -lowpass 17 -b 128
Audio #2
ID : 2
Format : MPEG Audio
Format version : Version 1
Format profile : Layer 3
Mode : Joint stereo
Mode extension : MS Stereo
Codec ID : 55
Codec ID/Hint : MP3
Duration : 24 min
Bit rate mode : Constant
Bit rate : 128 kb/s
Channel(s) : 2 channels
Sampling rate : 48.0 kHz
Compression mode : Lossy
Stream size : 22.0 MiB (7%)
Alignment : Aligned on interleaves
Interleave, duration : 80 ms (2.00 video frames)
Interleave, preload duration : 504 ms
Writing library : LAME3.98r
Encoding settings : -m j -V 4 -q 2 -lowpass 17 -b 128
[HIDE-THANKS]
Kód:
https://data.hu/get/11528427/D2912a.part1.rar
https://data.hu/get/11528443/D2912a.part2.rar
[/HIDE-THANKS]
vagy free
[HIDE-THANKS]
Kód:
https://data.hu/get/11528444/D2912av.part1.rar
https://data.hu/get/11528429/D2912av.part2.rar
https://data.hu/get/11528416/D2912av.part3.rar
https://data.hu/get/11528424/D2912av.part4.rar
https://data.hu/get/11528421/D2912av.part5.rar
https://data.hu/get/11528439/D2912av.part6.rar
https://data.hu/get/11528434/D2912av.part7.rar
[/HIDE-THANKS]
 

papadi

Állandó Tag
Állandó Tag
Ráadásként néhány epizód az eredeti sorozatból:

Tesz-Vesz Város
(The Busy World of Richard Scarry)
Francia-kanadai rajzfilmsorozat (1993/2007)
Richard Scarry könyvei alapján
Rendezte: Greg Bailey, Pascal Morelli, Stephan Martiniére
Magyar hangok: Józsa Imre, Minárovits Péter, Balázs Péter, Bácskai János, Kálid Artúr, Molnár Antal, Forgács Péter, Bolba Tamás, Vitai András, Grúber Hugó, Zsurzs Kati, Rudolf Teréz

2978491-20181119-LJI7M8.jpg


Tesz-Vesz Város 1.
1. évad
1a - A beszélő kenyér
1b - Kusz-kusz az észak-afrikai detektív
1c - A három horgász
2a - A legjobb születésnapi ajándék
2b - Patrick malac beszélni tanul
2c - A goromba Gronkle úr
3a - A világ legbuzgóbb tűzoltói
3b - A mexikói Manuel
3c - A legnagyobb fogás

2978493-20181119-tDDZd1.jpg


Formátum: dvdrip/avi
Méret: 749 MB
Felbontás: 720x544
Mintavételi frekvencia: 48000 Hz
Bitsebesség: 192 kbps
Műsoridő: 1:09:36
Részletes média információ:
I:\0000\Tesz-Vesz Város 1\01 - Tesz-Vesz Város 1 1-3.avi
General
Complete name : I:\0000\Tesz-Vesz Város 1\01 - Tesz-Vesz Város 1 1-3.avi
Format : AVI
Format/Info : Audio Video Interleave
File size : 250 MiB
Duration : 23 min
Overall bit rate : 1 504 kb/s
Writing application : VirtualDubMod 1.5.4.1 (build 2178/release)
Writing library : VirtualDubMod build 2178/release
Video #0
ID : 0
Format : MPEG-4 Visual
Format profile : Advanced Simple@L5
Format settings, BVOP : 1
Format settings, QPel : No
Format settings, GMC : No warppoints
Format settings, Matrix : Custom
Codec ID : XVID
Codec ID/Hint : XviD
Duration : 23 min
Bit rate : 1 304 kb/s
Width : 720 pixels
Height : 544 pixels
Display aspect ratio : 4:3
Frame rate : 25.000 FPS
Color space : YUV
Chroma subsampling : 4:2:0
Bit depth : 8 bits
Scan type : Progressive
Compression mode : Lossy
Bits/(Pixel*Frame) : 0.133
Stream size : 216 MiB (87%)
Writing library : XviD 1.2.1 (UTC 2008-12-04)
Audio #1
ID : 1
Format : MPEG Audio
Format version : Version 1
Format profile : Layer 3
Mode : Joint stereo
Mode extension : MS Stereo
Codec ID : 55
Codec ID/Hint : MP3
Duration : 23 min
Bit rate mode : Constant
Bit rate : 192 kb/s
Channel(s) : 2 channels
Sampling rate : 48.0 kHz
Compression mode : Lossy
Stream size : 31.9 MiB (13%)
Alignment : Aligned on interleaves
Interleave, duration : 80 ms (2.00 video frames)
Interleave, preload duration : 504 ms
Writing library : LAME3.98r
Encoding settings : -m j -V 4 -q 2 -lowpass 18.6 -b 192
[HIDE-THANKS]
Kód:
https://data.hu/get/11528415/D2931a.rar
[/HIDE-THANKS]
vagy free
[HIDE-THANKS]
Kód:
https://data.hu/get/11528440/D2931av.part1.rar
https://data.hu/get/11528425/D2931av.part2.rar
https://data.hu/get/11528423/D2931av.part3.rar
https://data.hu/get/11528433/D2931av.part4.rar
[/HIDE-THANKS]

2978492-20181119-Jny19F.jpg


Tesz-Vesz Város 2.
1. évad (folytatás)
4a - Mosoma úr különleges napja
4b - Mário, a velencei gondolás
4c - A legjobb babysitter
5a - A legjobb hiba
5b - Sneef, a legjobb detektív Európában
5c - Sátorozás
6a - Bugdács úr új autói
6b - Ernst és Heidi az Alpokban
6c - Billy kutya rossz napja

2978494-20181119-IH8jzw.jpg


Formátum: dvdrip/avi
Méret: 749 MB
Felbontás: 720x544
Mintavételi frekvencia: 48000 Hz
Bitsebesség: 192 kbps
Műsoridő: 1:09:36
Részletes média információ:
I:\0000\Tesz-Vesz Város 2\04 - Tesz-Vesz Város 1 10-12.avi
General
Complete name : I:\0000\Tesz-Vesz Város 2\04 - Tesz-Vesz Város 1 10-12.avi
Format : AVI
Format/Info : Audio Video Interleave
File size : 250 MiB
Duration : 23 min
Overall bit rate : 1 504 kb/s
Writing application : VirtualDubMod 1.5.4.1 (build 2178/release)
Writing library : VirtualDubMod build 2178/release
Video #0
ID : 0
Format : MPEG-4 Visual
Format profile : Advanced Simple@L5
Format settings, BVOP : 1
Format settings, QPel : No
Format settings, GMC : No warppoints
Format settings, Matrix : Custom
Codec ID : XVID
Codec ID/Hint : XviD
Duration : 23 min
Bit rate : 1 304 kb/s
Width : 720 pixels
Height : 544 pixels
Display aspect ratio : 4:3
Frame rate : 25.000 FPS
Color space : YUV
Chroma subsampling : 4:2:0
Bit depth : 8 bits
Scan type : Progressive
Compression mode : Lossy
Bits/(Pixel*Frame) : 0.133
Stream size : 216 MiB (87%)
Writing library : XviD 1.2.1 (UTC 2008-12-04)
Audio #1
ID : 1
Format : MPEG Audio
Format version : Version 1
Format profile : Layer 3
Mode : Joint stereo
Mode extension : MS Stereo
Codec ID : 55
Codec ID/Hint : MP3
Duration : 23 min
Bit rate mode : Constant
Bit rate : 192 kb/s
Channel(s) : 2 channels
Sampling rate : 48.0 kHz
Compression mode : Lossy
Stream size : 31.9 MiB (13%)
Alignment : Aligned on interleaves
Interleave, duration : 80 ms (2.00 video frames)
Interleave, preload duration : 504 ms
Writing library : LAME3.98r
Encoding settings : -m j -V 4 -q 2 -lowpass 18.6 -b 192
[HIDE-THANKS]
Kód:
https://data.hu/get/11528418/D2932a.rar
[/HIDE-THANKS]
vagy free
[HIDE-THANKS]
Kód:
https://data.hu/get/11528442/D2932av.part1.rar
https://data.hu/get/11528417/D2932av.part2.rar
https://data.hu/get/11528435/D2932av.part3.rar
https://data.hu/get/11528432/D2932av.part4.rar
[/HIDE-THANKS]

újratöltve
 

papadi

Állandó Tag
Állandó Tag
3056562-20190204-9GFkCe.jpg
3056563-20190204-gHu1cS.jpg
3056564-20190204-c1HuFA.jpg


Willy Fog
Három Verne regény feldolgozása spanyol rajzfilmeken 52 részben:
80 nap alatt a Föld körül
Utazás a Föld középpontjába
20000 mérföld a tenger mélyén

Műsoridő: 25 perc/epizód

3056562-20190204-9GFkCe.jpg

Willy Fog - 80 nap alatt a Föld körül
(La vuelta al mundo de Willy Fog)
Spanyol-japán rajzfilmsorozat (1983)
Rendezte: Luis Ballester
Mirax, 2008. február 27.
Hang: magyar, angol
Felirat: nincs
DVD1:
1. A fogadás
2. Az indulás
3. Rázós utazás
4. Körözés Willy Fog-ra
5. Willy Fog és a szellem
Média információ:
Video:
Kodek: MPEG-1/2 Video (mpgv)
Felbontás: 720x576
Képkockasebesség: 25
Képformátum: 1.33:1 (4:3)
Hang:
Kodek: A52 Audio (aka AC3) (a52)
Csatornák: Sztereó
Mintavételi frekvencia: 48000 Hz
Bitsebesség: 192 kb/mp
Formátum: iso
Méret: 5,23 GB
Műsoridő: 2:04:51
(prémium)
[HIDE-THANKS]
Kód:
https://data.hu/get/11666353/D3361i.part1.rar
https://data.hu/get/11666349/D3361i.part2.rar
https://data.hu/get/11666362/D3361i.part3.rar
https://data.hu/get/11666360/D3361i.part4.rar
https://data.hu/get/11666357/D3361i.part5.rar
[/HIDE-THANKS]

3056565-20190204-gOdejj.jpg


Formátum: dvdrip/avi
Méret: 1,71 GB
Felbontás: 720x544
Mintavételi frekvencia: 48000 Hz
Bitsebesség: 128 kbps
Műsoridő: 2:04:51
Részletes média információ:
I:\Video\Willy Fog - 80 nap alatt a Föld körül 1\01 - A fogadás.avi
General
Complete name : I:\Video\Willy Fog - 80 nap alatt a Föld körül 1\01 - A fogadás.avi
Format : AVI
Format/Info : Audio Video Interleave
File size : 350 MiB
Duration : 25 min
Overall bit rate : 1 953 kb/s
Writing application : VirtualDubMod 1.5.4.1 (build 2178/release)
Writing library : VirtualDubMod build 2178/release
Video #0
ID : 0
Format : MPEG-4 Visual
Format profile : Advanced Simple@L5
Format settings, BVOP : 1
Format settings, QPel : No
Format settings, GMC : No warppoints
Format settings, Matrix : Custom
Codec ID : XVID
Codec ID/Hint : XviD
Duration : 25 min
Bit rate : 1 687 kb/s
Width : 720 pixels
Height : 544 pixels
Display aspect ratio : 4:3
Frame rate : 25.000 FPS
Color space : YUV
Chroma subsampling : 4:2:0
Bit depth : 8 bits
Scan type : Progressive
Compression mode : Lossy
Bits/(Pixel*Frame) : 0.172
Stream size : 302 MiB (86%)
Writing library : XviD 1.2.1 (UTC 2008-12-04)
Audio #1
ID : 1
Format : MPEG Audio
Format version : Version 1
Format profile : Layer 3
Mode : Joint stereo
Mode extension : MS Stereo
Codec ID : 55
Codec ID/Hint : MP3
Duration : 25 min
Bit rate mode : Constant
Bit rate : 128 kb/s
Channel(s) : 2 channels
Sampling rate : 48.0 kHz
Compression mode : Lossy
Stream size : 22.9 MiB (7%)
Alignment : Aligned on interleaves
Interleave, duration : 80 ms (2.00 video frames)
Interleave, preload duration : 504 ms
Writing library : LAME3.98r
Encoding settings : -m j -V 4 -q 2 -lowpass 17 -b 128
Audio #2
ID : 2
Format : MPEG Audio
Format version : Version 1
Format profile : Layer 3
Mode : Joint stereo
Mode extension : MS Stereo
Codec ID : 55
Codec ID/Hint : MP3
Duration : 25 min
Bit rate mode : Constant
Bit rate : 128 kb/s
Channel(s) : 2 channels
Sampling rate : 48.0 kHz
Compression mode : Lossy
Stream size : 22.9 MiB (7%)
Alignment : Aligned on interleaves
Interleave, duration : 80 ms (2.00 video frames)
Interleave, preload duration : 504 ms
Writing library : LAME3.98r
Encoding settings : -m j -V 4 -q 2 -lowpass 17 -b 128
[HIDE-THANKS]
Kód:
https://data.hu/get/11666355/D3361a.part1.rar
https://data.hu/get/11666363/D3361a.part2.rar
vagy free
Kód:
https://data.hu/get/11666359/D3361av.part01.rar
https://data.hu/get/11666356/D3361av.part02.rar
https://data.hu/get/11666347/D3361av.part03.rar
https://data.hu/get/11666358/D3361av.part04.rar
https://data.hu/get/11666348/D3361av.part05.rar
https://data.hu/get/11666354/D3361av.part06.rar
https://data.hu/get/11666364/D3361av.part07.rar
https://data.hu/get/11666350/D3361av.part08.rar
https://data.hu/get/11666361/D3361av.part09.rar
https://data.hu/get/11666351/D3361av.part10.rar
[/HIDE-THANKS]
 
Utoljára módosítva:

papadi

Állandó Tag
Állandó Tag
3056566-20190204-uQZpys.jpg

Willy Fog - 80 nap alatt a Föld körül
(La vuelta al mundo de Willy Fog)
Spanyol-japán rajzfilmsorozat (1983)
Rendezte: Luis Ballester
Mirax, 2008. február 27.
Hang: magyar, angol
Felirat: nincs

DVD2:
6. Kaland a pagodában
7. A kalkuttai expressz
8. Veszély a dzsungelben
9. Romy kiszabadítása
10. Ajándék Parisnak

Média információ:
Video:
Kodek: MPEG-1/2 Video (mpgv)
Felbontás: 720x576
Képkockasebesség: 25
Képformátum: 1.33:1 (4:3)
Hang:
Kodek: A52 Audio (aka AC3) (a52)
Csatornák: Sztereó
Mintavételi frekvencia: 48000 Hz
Bitsebesség: 192 kb/mp
Formátum: iso
Méret: 5,40 GB
Műsoridő: 2:05:15
(prémium)
[HIDE-THANKS]
Kód:
https://data.hu/get/11666396/D3362i.part1.rar
https://data.hu/get/11666392/D3362i.part2.rar
https://data.hu/get/11666390/D3362i.part3.rar
https://data.hu/get/11666399/D3362i.part4.rar
https://data.hu/get/11666401/D3362i.part5.rar
[/HIDE-THANKS]

3056581-20190204-1lB4KI.jpg

Formátum: dvdrip/avi
Méret: 1,71 GB
Felbontás: 720x544
Mintavételi frekvencia: 48000 Hz
Bitsebesség: 128 kbps
Műsoridő: 2:05:14
Részletes média információ:
I:\Video\Willy Fog - 80 nap alatt a Föld körül 2\06 - Kaland a pagodában.avi
General
Complete name : I:\Video\Willy Fog - 80 nap alatt a Föld körül 2\06 - Kaland a pagodában.avi
Format : AVI
Format/Info : Audio Video Interleave
File size : 350 MiB
Duration : 25 min
Overall bit rate : 1 956 kb/s
Writing application : VirtualDubMod 1.5.4.1 (build 2178/release)
Writing library : VirtualDubMod build 2178/release
Video #0
ID : 0
Format : MPEG-4 Visual
Format profile : Advanced Simple@L5
Format settings, BVOP : 1
Format settings, QPel : No
Format settings, GMC : No warppoints
Format settings, Matrix : Custom
Codec ID : XVID
Codec ID/Hint : XviD
Duration : 25 min
Bit rate : 1 690 kb/s
Width : 720 pixels
Height : 544 pixels
Display aspect ratio : 4:3
Frame rate : 25.000 FPS
Color space : YUV
Chroma subsampling : 4:2:0
Bit depth : 8 bits
Scan type : Progressive
Compression mode : Lossy
Bits/(Pixel*Frame) : 0.173
Stream size : 302 MiB (86%)
Writing library : XviD 1.2.1 (UTC 2008-12-04)
Audio #1
ID : 1
Format : MPEG Audio
Format version : Version 1
Format profile : Layer 3
Mode : Joint stereo
Mode extension : MS Stereo
Codec ID : 55
Codec ID/Hint : MP3
Duration : 25 min
Bit rate mode : Constant
Bit rate : 128 kb/s
Channel(s) : 2 channels
Sampling rate : 48.0 kHz
Compression mode : Lossy
Stream size : 22.9 MiB (7%)
Alignment : Aligned on interleaves
Interleave, duration : 80 ms (2.00 video frames)
Interleave, preload duration : 504 ms
Writing library : LAME3.98r
Encoding settings : -m j -V 4 -q 2 -lowpass 17 -b 128
Audio #2
ID : 2
Format : MPEG Audio
Format version : Version 1
Format profile : Layer 3
Mode : Joint stereo
Mode extension : MS Stereo
Codec ID : 55
Codec ID/Hint : MP3
Duration : 25 min
Bit rate mode : Constant
Bit rate : 128 kb/s
Channel(s) : 2 channels
Sampling rate : 48.0 kHz
Compression mode : Lossy
Stream size : 22.9 MiB (7%)
Alignment : Aligned on interleaves
Interleave, duration : 80 ms (2.00 video frames)
Interleave, preload duration : 504 ms
Writing library : LAME3.98r
Encoding settings : -m j -V 4 -q 2 -lowpass 17 -b 128
[HIDE-THANKS]
Kód:
https://data.hu/get/11666393/D3362a.part1.rar
https://data.hu/get/11666394/D3362a.part2.rar
vagy free
Kód:
https://data.hu/get/11666400/D3362av.part01.rar
https://data.hu/get/11666391/D3362av.part02.rar
https://data.hu/get/11666386/D3362av.part03.rar
https://data.hu/get/11666398/D3362av.part04.rar
https://data.hu/get/11666389/D3362av.part05.rar
https://data.hu/get/11666387/D3362av.part06.rar
https://data.hu/get/11666388/D3362av.part07.rar
https://data.hu/get/11666385/D3362av.part08.rar
https://data.hu/get/11666397/D3362av.part09.rar
https://data.hu/get/11666395/D3362av.part10.rar
[/HIDE-THANKS]
 

papadi

Állandó Tag
Állandó Tag
3056582-20190204-oigjOn.jpg

Willy Fog - 80 nap alatt a Föld körül
(La vuelta al mundo de Willy Fog)
Spanyol-japán rajzfilmsorozat (1983)
Rendezte: Luis Ballester
Mirax, 2008. február 27.
Hang: magyar, angol
Felirat: nincs

DVD3:
11. Rigodon bajba kerül
12. Vihar a Kínai tengeren
13. Rigodon bekapja a horgot
14. Yokohama felé tartva
15- Akita cirkusza

Média információ:
Video:
Kodek: MPEG-1/2 Video (mpgv)
Felbontás: 720x576
Képkockasebesség: 25
Képformátum: 1.33:1 (4:3)
Hang:
Kodek: A52 Audio (aka AC3) (a52)
Csatornák: Sztereó
Mintavételi frekvencia: 48000 Hz
Bitsebesség: 192 kb/mp
Formátum: iso
Méret: 4,71 GB
Műsoridő: 2:05:02
(prémium)
[HIDE-THANKS]
Kód:
https://data.hu/get/11666803/D3363i.part1.rar
https://data.hu/get/11666795/D3363i.part2.rar
https://data.hu/get/11666808/D3363i.part3.rar
https://data.hu/get/11666805/D3363i.part4.rar
https://data.hu/get/11666798/D3363i.part5.rar
[/HIDE-THANKS]

3056583-20190204-EJ6kHo.jpg

Formátum: dvdrip/avi
Méret: 1,70 GB
Felbontás: 720x544
Mintavételi frekvencia: 48000 Hz
Bitsebesség: 128 kbps
Műsoridő: 2:05:04
Részletes média információ:
I:\Video\Willy Fog - 80 nap alatt a Föld körül 3\11 - Rigodon bajba kerül.avi
General
Complete name : I:\Video\Willy Fog - 80 nap alatt a Föld körül 3\11 - Rigodon bajba kerül.avi
Format : AVI
Format/Info : Audio Video Interleave
File size : 350 MiB
Duration : 25 min
Overall bit rate : 1 953 kb/s
Writing application : VirtualDubMod 1.5.4.1 (build 2178/release)
Writing library : VirtualDubMod build 2178/release
Video #0
ID : 0
Format : MPEG-4 Visual
Format profile : Advanced Simple@L5
Format settings, BVOP : 1
Format settings, QPel : No
Format settings, GMC : No warppoints
Format settings, Matrix : Custom
Codec ID : XVID
Codec ID/Hint : XviD
Duration : 25 min
Bit rate : 1 687 kb/s
Width : 720 pixels
Height : 544 pixels
Display aspect ratio : 4:3
Frame rate : 25.000 FPS
Color space : YUV
Chroma subsampling : 4:2:0
Bit depth : 8 bits
Scan type : Progressive
Compression mode : Lossy
Bits/(Pixel*Frame) : 0.172
Stream size : 302 MiB (86%)
Writing library : XviD 1.2.1 (UTC 2008-12-04)
Audio #1
ID : 1
Format : MPEG Audio
Format version : Version 1
Format profile : Layer 3
Mode : Joint stereo
Mode extension : MS Stereo
Codec ID : 55
Codec ID/Hint : MP3
Duration : 25 min
Bit rate mode : Constant
Bit rate : 128 kb/s
Channel(s) : 2 channels
Sampling rate : 48.0 kHz
Compression mode : Lossy
Stream size : 22.9 MiB (7%)
Alignment : Aligned on interleaves
Interleave, duration : 80 ms (2.00 video frames)
Interleave, preload duration : 504 ms
Writing library : LAME3.98r
Encoding settings : -m j -V 4 -q 2 -lowpass 17 -b 128
Audio #2
ID : 2
Format : MPEG Audio
Format version : Version 1
Format profile : Layer 3
Mode : Joint stereo
Mode extension : MS Stereo
Codec ID : 55
Codec ID/Hint : MP3
Duration : 25 min
Bit rate mode : Constant
Bit rate : 128 kb/s
Channel(s) : 2 channels
Sampling rate : 48.0 kHz
Compression mode : Lossy
Stream size : 22.9 MiB (7%)
Alignment : Aligned on interleaves
Interleave, duration : 80 ms (2.00 video frames)
Interleave, preload duration : 504 ms
Writing library : LAME3.98r
Encoding settings : -m j -V 4 -q 2 -lowpass 17 -b 128
[HIDE-THANKS]
Kód:
https://data.hu/get/11666802/D3363a.part1.rar
https://data.hu/get/11666797/D3363a.part2.rar
vagy free
Kód:
https://data.hu/get/11666806/D3363av.part01.rar
https://data.hu/get/11666791/D3363av.part02.rar
https://data.hu/get/11666793/D3363av.part03.rar
https://data.hu/get/11666792/D3363av.part04.rar
https://data.hu/get/11666796/D3363av.part05.rar
https://data.hu/get/11666790/D3363av.part06.rar
https://data.hu/get/11666801/D3363av.part07.rar
https://data.hu/get/11666800/D3363av.part08.rar
https://data.hu/get/11666794/D3363av.part09.rar
https://data.hu/get/11666799/D3363av.part10.rar
[/HIDE-THANKS]
 

papadi

Állandó Tag
Állandó Tag
3056584-20190204-pvdWUV.jpg

Willy Fog - 80 nap alatt a Föld körül
(La vuelta al mundo de Willy Fog)
Spanyol-japán rajzfilmsorozat (1983)
Rendezte: Luis Ballester
Mirax, 2008. február 27.
Hang: magyar, angol
Felirat: nincs

DVD4:
16. Nyaralás Hawaii-on
17. Utazás hőlégballonnal
18. Ismét vonaton
19. Bivalycsorda
20. Kockázatos döntés

Média információ:
Video:
Kodek: MPEG-1/2 Video (mpgv)
Felbontás: 720x576
Képkockasebesség: 25
Képformátum: 1.33:1 (4:3)
Hang:
Kodek: A52 Audio (aka AC3) (a52)
Csatornák: Sztereó
Mintavételi frekvencia: 48000 Hz
Bitsebesség: 192 kb/mp
Formátum: iso
Méret: 6,68 GB
Műsoridő: 2:05:19
(prémium)
[HIDE-THANKS]
Kód:
https://data.hu/get/11667816/D3364i.part1.rar
https://data.hu/get/11667828/D3364i.part2.rar
https://data.hu/get/11667817/D3364i.part3.rar
https://data.hu/get/11667826/D3364i.part4.rar
https://data.hu/get/11667821/D3364i.part5.rar
https://data.hu/get/11667825/D3364i.part6.rar
https://data.hu/get/11667807/D3364i.part7.rar
[/HIDE-THANKS]

3056585-20190204-EwdNAL.jpg

Formátum: dvdrip/avi
Méret: 1,71 GB
Felbontás: 720x544
Mintavételi frekvencia: 48000 Hz
Bitsebesség: 128 kbps
Műsoridő: 2:05:19
Részletes média információ:
I:\Video\Willy Fog - 80 nap alatt a Föld körül 4\16 - Nyaralás Hawai-on.avi
General
Complete name : I:\Video\Willy Fog - 80 nap alatt a Föld körül 4\16 - Nyaralás Hawai-on.avi
Format : AVI
Format/Info : Audio Video Interleave
File size : 350 MiB
Duration : 25 min
Overall bit rate : 1 952 kb/s
Writing application : VirtualDubMod 1.5.4.1 (build 2178/release)
Writing library : VirtualDubMod build 2178/release
Video #0
ID : 0
Format : MPEG-4 Visual
Format profile : Advanced Simple@L5
Format settings, BVOP : 1
Format settings, QPel : No
Format settings, GMC : No warppoints
Format settings, Matrix : Custom
Codec ID : XVID
Codec ID/Hint : XviD
Duration : 25 min
Bit rate : 1 687 kb/s
Width : 720 pixels
Height : 544 pixels
Display aspect ratio : 4:3
Frame rate : 25.000 FPS
Color space : YUV
Chroma subsampling : 4:2:0
Bit depth : 8 bits
Scan type : Progressive
Compression mode : Lossy
Bits/(Pixel*Frame) : 0.172
Stream size : 302 MiB (86%)
Writing library : XviD 1.2.1 (UTC 2008-12-04)
Audio #1
ID : 1
Format : MPEG Audio
Format version : Version 1
Format profile : Layer 3
Mode : Joint stereo
Mode extension : MS Stereo
Codec ID : 55
Codec ID/Hint : MP3
Duration : 25 min
Bit rate mode : Constant
Bit rate : 128 kb/s
Channel(s) : 2 channels
Sampling rate : 48.0 kHz
Compression mode : Lossy
Stream size : 22.9 MiB (7%)
Alignment : Aligned on interleaves
Interleave, duration : 80 ms (2.00 video frames)
Interleave, preload duration : 504 ms
Writing library : LAME3.98r
Encoding settings : -m j -V 4 -q 2 -lowpass 17 -b 128
Audio #2
ID : 2
Format : MPEG Audio
Format version : Version 1
Format profile : Layer 3
Mode : Joint stereo
Mode extension : MS Stereo
Codec ID : 55
Codec ID/Hint : MP3
Duration : 25 min
Bit rate mode : Constant
Bit rate : 128 kb/s
Channel(s) : 2 channels
Sampling rate : 48.0 kHz
Compression mode : Lossy
Stream size : 22.9 MiB (7%)
Alignment : Aligned on interleaves
Interleave, duration : 80 ms (2.00 video frames)
Interleave, preload duration : 504 ms
Writing library : LAME3.98r
Encoding settings : -m j -V 4 -q 2 -lowpass 17 -b 128
[HIDE-THANKS]
Kód:
https://data.hu/get/11667815/D3364a.part1.rar
https://data.hu/get/11667827/D3364a.part2.rar
vagy free
Kód:
https://data.hu/get/11667809/D3364av.part01.rar
https://data.hu/get/11667818/D3364av.part02.rar
https://data.hu/get/11667822/D3364av.part03.rar
https://data.hu/get/11667823/D3364av.part04.rar
https://data.hu/get/11667806/D3364av.part05.rar
https://data.hu/get/11667819/D3364av.part06.rar
https://data.hu/get/11667805/D3364av.part07.rar
https://data.hu/get/11667810/D3364av.part08.rar
https://data.hu/get/11667824/D3364av.part09.rar
https://data.hu/get/11667808/D3364av.part10.rar
[/HIDE-THANKS]
 

papadi

Állandó Tag
Állandó Tag
3056587-20190204-RYWMWi.jpg

Willy Fog - 80 nap alatt a Föld körül
(La vuelta al mundo de Willy Fog)
Spanyol-japán rajzfilmsorozat (1983)
Rendezte: Luis Ballester
Mirax, 2008. február 27.
Hang: magyar, angol
Felirat: nincs

DVD5:
21. Egy különleges vonat
22. Rigodon visszatér
23. Irány New York
24. Lázadás a Henriettán
25. Willy Fog-ot letartóztatják
26. A végső döntés

Média információ:
Video:
Kodek: MPEG-1/2 Video (mpgv)
Felbontás: 720x576
Képkockasebesség: 25
Képformátum: 1.33:1 (4:3)
Hang:
Kodek: A52 Audio (aka AC3) (a52)
Csatornák: Sztereó
Mintavételi frekvencia: 48000 Hz
Bitsebesség: 192 kb/mp
Formátum: iso
Méret: 7,29 GB
Műsoridő: 2:29:40
(prémium)
[HIDE-THANKS]
Kód:
https://data.hu/get/11668446/D3365i.part1.rar
https://data.hu/get/11668456/D3365i.part2.rar
https://data.hu/get/11668451/D3365i.part3.rar
https://data.hu/get/11668452/D3365i.part4.rar
https://data.hu/get/11668450/D3365i.part5.rar
https://data.hu/get/11668455/D3365i.part6.rar
https://data.hu/get/11668457/D3365i.part7.rar
[/HIDE-THANKS]

3056588-20190204-G9RRrg.jpg

Formátum: dvdrip/avi
Méret: 2,05 GB
Felbontás: 720x544
Mintavételi frekvencia: 48000 Hz
Bitsebesség: 128 kbps
Műsoridő: 2:29:40
Részletes média információ:
I:\Video\Willy Fog - 80 nap alatt a Föld körül 5\21 - Egy különleges vonat.avi
General
Complete name : I:\Video\Willy Fog - 80 nap alatt a Föld körül 5\21 - Egy különleges vonat.avi
Format : AVI
Format/Info : Audio Video Interleave
File size : 349 MiB
Duration : 25 min
Overall bit rate : 1 947 kb/s
Writing application : VirtualDubMod 1.5.4.1 (build 2178/release)
Writing library : VirtualDubMod build 2178/release
Video #0
ID : 0
Format : MPEG-4 Visual
Format profile : Advanced Simple@L5
Format settings, BVOP : 1
Format settings, QPel : No
Format settings, GMC : No warppoints
Format settings, Matrix : Custom
Codec ID : XVID
Codec ID/Hint : XviD
Duration : 25 min
Bit rate : 1 681 kb/s
Width : 720 pixels
Height : 544 pixels
Display aspect ratio : 4:3
Frame rate : 25.000 FPS
Color space : YUV
Chroma subsampling : 4:2:0
Bit depth : 8 bits
Scan type : Progressive
Compression mode : Lossy
Bits/(Pixel*Frame) : 0.172
Stream size : 301 MiB (86%)
Writing library : XviD 1.2.1 (UTC 2008-12-04)
Audio #1
ID : 1
Format : MPEG Audio
Format version : Version 1
Format profile : Layer 3
Mode : Joint stereo
Mode extension : MS Stereo
Codec ID : 55
Codec ID/Hint : MP3
Duration : 25 min
Bit rate mode : Constant
Bit rate : 128 kb/s
Channel(s) : 2 channels
Sampling rate : 48.0 kHz
Compression mode : Lossy
Stream size : 22.9 MiB (7%)
Alignment : Aligned on interleaves
Interleave, duration : 80 ms (2.00 video frames)
Interleave, preload duration : 504 ms
Writing library : LAME3.98r
Encoding settings : -m j -V 4 -q 2 -lowpass 17 -b 128
Audio #2
ID : 2
Format : MPEG Audio
Format version : Version 1
Format profile : Layer 3
Mode : Joint stereo
Mode extension : MS Stereo
Codec ID : 55
Codec ID/Hint : MP3
Duration : 25 min
Bit rate mode : Constant
Bit rate : 128 kb/s
Channel(s) : 2 channels
Sampling rate : 48.0 kHz
Compression mode : Lossy
Stream size : 23.0 MiB (7%)
Alignment : Aligned on interleaves
Interleave, duration : 80 ms (2.00 video frames)
Interleave, preload duration : 504 ms
Writing library : LAME3.98r
Encoding settings : -m j -V 4 -q 2 -lowpass 17 -b 128
[HIDE-THANKS]
Kód:
https://data.hu/get/11668079/D3365a.part1.rar
https://data.hu/get/11668083/D3365a.part2.rar
https://data.hu/get/11668070/D3365a.part3.rar
vagy free
Kód:
https://data.hu/get/11668072/D3365av.part01.rar
https://data.hu/get/11668081/D3365av.part02.rar
https://data.hu/get/11668080/D3365av.part03.rar
https://data.hu/get/11668074/D3365av.part04.rar
https://data.hu/get/11668075/D3365av.part05.rar
https://data.hu/get/11668071/D3365av.part06.rar
https://data.hu/get/11668076/D3365av.part07.rar
https://data.hu/get/11668073/D3365av.part08.rar
https://data.hu/get/11668069/D3365av.part09.rar
https://data.hu/get/11668082/D3365av.part10.rar
https://data.hu/get/11668077/D3365av.part11.rar
[/HIDE-THANKS]
 
Oldal tetejére